Wednesday, 2020-09-23, 22:59
Main Registration RSS
Welcome, Guest
Login form
Login:
Password:
Site menu
Search
Mini Chat
Statistics

Total online: 1
Guests: 1
Users: 0
Files » Bob Marley & The Wailers

Bob Marley & The Wailers - 1976-06-13 - Jaap Edenhal, Amsterdam, Netherlands - Madtaper AUD
2012-08-29, 07:57
Torrent № 34
Status: Checked
Artist(s): Bob Marley & The Wailers
Category: Audio
Added: 2012-08-29, 07:57 (GMT)
Added by: admin
Download: Magnet
Views: 1186
Info hash: A800A9DA54F602D31128E4C59C55F2C3BC9E04A5
Rating: 5.0/1
Rate:
Tags: 1976-06-13

Description:


Bob Marley & the Wailers
Jaap Edenhal
Amsterdam Netherlands
June 13, 1976

01 Trenchtown Rock
02 Burnin' and Lootin'
03 Them Belly Full
04 Rebel Music
05 I Shot the Sheriff
06 Want More
07 No Woman No Cry
08 Lively Up Yourself
09 Roots Rock Reggae
-- encore
10 Positive Vibration
11 Get Up Stand Up
12 War / No More Trouble
13 Get Up Stand Up - Reprise

Mono audience recording by Hans "Madtaper" Devente.
Original transfer by Madtaper: Cassette > Nakamichi Dragon > Audacity > WAV > FLAC.
Edits & mastering: FLAC > TLH > Wavelab > CD-Wave > TLH > FLAC 1644 tagged.

This was Bob Marley's first appearance in the Netherlands. It's written about here:
http://www.bob-marley.es/audio/Babylon-By-Bus-EN.pdf (Chapter Three).

The source had numerous operations & repairs performed: re-blended to mono, adjusted
pitch, attenuated some crowd noise & clapping, fixed drop-outs & levels, etc. There
are areas of audible tape damage here and there. Also, there's a cut in Get Up Stand
Up at 3:06 that's been cross-faded together. The crowd is very loud and chanting at
times. Note that small FLAC file-size is due to mono WAVs (nothing lossy) ...Enjoy!

2f15f5e3cfb0333aecbc2a48e2c3b737 *bmw1976-06-13t01.flac
764205669945a72703e655d325d6bab3 *bmw1976-06-13t02.flac
bc834269bffb5d4000ffe85d5bcd39a0 *bmw1976-06-13t03.flac
110d186d59d605f89ffe87645c8035cb *bmw1976-06-13t04.flac
dfa88b24324b4acaef55966b13b1cdf4 *bmw1976-06-13t05.flac
64e3de69104f321af8d9df06a2d9b7e4 *bmw1976-06-13t06.flac
9480ff75af5df2306c51e84834c2817f *bmw1976-06-13t07.flac
1bb1fe268206bc8ec78afb826e7ebb9a *bmw1976-06-13t08.flac
2864c3e6b1934f77d890826475a92271 *bmw1976-06-13t09.flac
07ca3fe988151bfb1f413203027b1221 *bmw1976-06-13t10.flac
d98ab20c468e5c8150a66b97b5599c30 *bmw1976-06-13t11.flac
3d96eed87729a0a333f691d367610a0b *bmw1976-06-13t12.flac
cd1c69b4f64b2e7d7774eedc6f5c735b *bmw1976-06-13t13.flac

bmw1976-06-13t01.flac:1dda000db6ced905234642741e6dc98a
bmw1976-06-13t02.flac:9866e2598c89260d7c5eaefb83d52c0e
bmw1976-06-13t03.flac:ad7967b89bdabc1006b1dbd108cd3383
bmw1976-06-13t04.flac:55a3776f5617a292340783c2f58649cf
bmw1976-06-13t05.flac:557e66089c198464df79d447e3b1ca99
bmw1976-06-13t06.flac:81f7a07bcf4175e11a597679560d3f44
bmw1976-06-13t07.flac:75d0fd14ad5d95c553b423bb22281205
bmw1976-06-13t08.flac:e95dbf01aa82a99016cfa20636973542
bmw1976-06-13t09.flac:1f5bf932b1eaa39971d743e46eaedf3c
bmw1976-06-13t10.flac:5442d544325e4bfee7c3a6d958440c69
bmw1976-06-13t11.flac:91569aa89efebcbdc10d23f8dfacde1c
bmw1976-06-13t12.flac:e5978a7965ebec5b5c5141b3f22a34a7
bmw1976-06-13t13.flac:5d92f68d8d052a5278ad092214ab8887

length expanded size cdr WAVE problems fmt ratio filename
4:44.53 50222300 B --- -- ---xx flac 0.2907 bmw1976-06-13t01.flac
5:00.10 52943564 B --- -- ---xx flac 0.2872 bmw1976-06-13t02.flac
3:58.10 42006764 B --- -- ---xx flac 0.2841 bmw1976-06-13t03.flac
5:39.73 59971340 B --- -- ---xx flac 0.2840 bmw1976-06-13t04.flac
5:36.14 59303372 B --- -- ---xx flac 0.2813 bmw1976-06-13t05.flac
6:25.56 68045756 B --- -- ---xx flac 0.2779 bmw1976-06-13t06.flac
6:26.20 68137484 B --- -- ---xx flac 0.2701 bmw1976-06-13t07.flac
5:22.34 56880812 B --- -- ---xx flac 0.2825 bmw1976-06-13t08.flac
6:16.53 66451100 B --- -- ---xx flac 0.2873 bmw1976-06-13t09.flac
3:35.03 37933100 B --- -- ---xx flac 0.2839 bmw1976-06-13t10.flac
5:57.34 63054812 B --- -- ---xx flac 0.2952 bmw1976-06-13t11.flac
4:57.01 52393196 B --- -- ---xx flac 0.2907 bmw1976-06-13t12.flac
7:07.13 75353420 B --- -- ---xx flac 0.2901 bmw1976-06-13t13.flac
71:06.74 752697020 B 0.2849 (13 files)

No errors occured.
Total comments: 0
Only registered users can add comments.
[ Registration | Login ]