Friday, 2020-06-05, 09:35
Main Registration RSS
Welcome, Guest
Login form
Login:
Password:
Site menu
Search
Mini Chat
Statistics

Total online: 1
Guests: 1
Users: 0
Files » Jimi Hendrix

Jimi Hendrix - 1968-1970 Acoustic Demos & Poetry Recital - Home Recordings
2020-05-01, 07:05
Torrent № 247
Status: Checked
Artist(s): Jimi Hendrix
Category: Audio
Added: 2020-05-01, 07:05 (GMT)
Added by: UncleErnie
Download: Magnet (292 Mb)
Views: 39
Info hash: D7C36AEF69716E42BDFFE0978E594DACD3DE07F0
Rating: 0.0/0
Rate:
Tags: Home Recordings, Acoustic Demos & Poetry Recital

Description:

artist: JIMI HENDRIX

title: ACOUSTIC DEMOS & POETRY RECITAL

lineage: LOW GEN. TAPES > CDR > EAC > WAV > FLAC

quality: GREAT!!!

notes: NO OFFICIALY RELEASED MATERIAL INCLUDED
LOTS OF DEMOS ARE INCOMPLETE & PREVIOUSLY UNRELEASED

Tracks:
1. LONG HOT SUMMER NIGHT
--> Drake Hotel, New-York, April 1968

2. ALL ALONG THE WATCHTOWER
3. BRIGHT LIGHTS, BIG CITY
--> Jimi's Apartment, New-York, March 1968, Featuring Paul Caruso

4. ACOUSTIC JAMS WITH PAUL CARUSO (Sample #1)
5. ACOUSTIC JAMS WITH PAUL CARUSO (Sample #2)
--> Jimi's Apartment, New-York, March or April 1968, From a 2002 Sotheby's Sampler Tape

6. ROOM FULL OF MIRRORS POETRY RECITAL
7. ROOM FULL OF MIRRORS POETRY RECITAL (Edit - Different Mix)
--> Jimi's Flat, London, March 1969

8. FAYE'S TAPE (Acoustic Demos - Radio Edit)
--> Home Recordings, USA, 1970

length expanded size cdr WAVE problems filename
4:21.67 46198028 --- -- ---xx Track01.flac
1:16.12 13434668 --- -- ---xx Track02.flac
1:51.02 19585148 --- -- ---xx Track03.flac
4:05.25 43276844 --- -- ---xx Track04.flac
6:50.66 72479276 --- -- ---xx Track05.flac
22:04.45 233659484 --- -- ---xx Track06.flac
12:02.73 127532540 --- -- ---xx Track07.flac
1:59.27 21055148 --- -- ---xx Track08.flac
54:32.17 577221136 B
(totals for 8 files, 0.5308 overall compression ratio)

Enjoy, Share & Preserve Quality !!!
Brought to You by BP
[October 2005]

Total comments: 0
Only registered users can add comments.
[ Registration | Login ]