Wednesday, 2020-09-23, 22:39
Main Registration RSS
Welcome, Guest
Login form
Login:
Password:
Site menu
Search
Mini Chat
Statistics

Total online: 1
Guests: 1
Users: 0
Files » Bunny Wailer

Bunny Wailer - 1986-07-12 - Long Beach Arena, Long Beach, CA, USA
2013-07-27, 08:57
Torrent № 147
Status: Checked
Artist(s): Bunny Wailer
Category: Audio
Added: 2013-07-27, 08:57 (GMT)
Added by: admin
Download: Magnet
Views: 503
Info hash: 6E20B473A8A6BD9FBA3DAC831B9F7990854C2ABD
Rating: 0.0/0
Rate:
Tags: Reggae

Description:

BUNNY WAILER
Roots Radics Band
Long Beach Arena
Long Beach, CA
July 12, 1986

Soundboard

Disc One / First Set (78:08)

01 The Old Dragon
02 Bunny Speaks - "In the Beginning"
03 Rastaman
04 Blackheart Man
05 Armagideon
06 Bunny Speaks - "Greetings"
07 Fighting Against Convictions
08 Fig Tree
09 Bunny Speaks - "The Music of Kings"
10 Dreamland
11 Love Fire
12 Bright Soul
13 Struggle
14 Rise And Shine
15 Bunny Speaks - "We Are the Civilized People of Now"
16 Rockers

Disc Two / Start of Second Set (36:33)

01 Intro
02 Rock And Groove
03 Bunny Speaks - "No Wooden Foot"
04 Haughty Tempo
05 Bunny Speaks - "Reggae Healing"
06 Jolly Session
07 Bunny Speaks - "From 92 to 2"
08 Hot Foot Head
09 Bunny Speaks - "Reggae Baptism"
10 Camouflage
11 Bunny Speaks - "Authentic"
12 Rule Dance Hall

Disc Three / End of Second Set (47:18)

01 Bunny Speaks - "Man with a Bucket"
02 Roots Man Skanking
03 Bunny Speaks - "Ants Can Skank"
04 Dance Rock
05 Cool Runnings
06 Bunny Speaks - "Restore Our Souls"
(Missing: Old Time Sinting)
07 Rule This Land
08 Soul Rebel
09 Hypocrite
10 I'm The Toughest
11 Crucial
12 Bunny Speaks - "Livication"
13 Crazy Baldhead
(Missing: No Woman No Cry)

Source: Soundboard > Cx? > C > Transfer to WAV
Transfer: Cassettes > Sony TC-D5M > SoundBlaster > WAV > Soundforge >
CD-Wave (for ID's) > TLH (for checksums and SBE-OK) > FLAC Frontend

This was Bunny's first US gig since 1973, and possibly his greatest solo
concert ever performed. It certainly was the longest show, and presents
a nice overview of Bunny's musical career to that point. I got these
tapes in 1987 from someone who worked in the concert lighting business
in Southern California.

There's a lot of tape-surface noise across the entire sound spectrum in
this recording. This may be from wrong Dolby decoding in a pervious
generation, from too many tape generations, or possibly from the master
tape itself. I removed some hiss from the high-end, but not too much,
since I didn't want to muffle the music.

Noted flaws: Bunny's vocals over-saturate and distort in a few spots.
There's a cut in the middle of "Dance Rock" and it sounds like a few
minutes are missing. The beginning of "Rule This Land" fades in. And I've
noted the two songs that are missing entirely. Otherwise, it's all there.

I performed numerous operations with Soundforge: Repaired the pitch
which was off in the first set tape, made fades and edits where needed,
removed some hiss, repaired several dropouts, smoothed some harsh spots
that were distorted, and generally fixed things where ever I could.

If you enjoy this, then support Bunny and go buy some of his many great
albums, like "Sings the Wailers", "Blackheart Man" or "Rule Dance Hall".
LIVE IN PEACE -- TRADE FREELY -- ENJOY GOOD MUSIC! (September 2005)

Shntool Output:

length expanded size cdr WAVE problems filename
9:29.20 100418684 --- -- ---xx bunny1986-07-12d1t01.flac
3:05.38 32723420 --- -- ---xx bunny1986-07-12d1t02.flac
4:10.74 44274092 --- -- ---xx bunny1986-07-12d1t03.flac
6:46.19 71663132 --- -- ---xx bunny1986-07-12d1t04.flac
6:33.14 69358172 --- -- ---xx bunny1986-07-12d1t05.flac
0:45.36 8022716 --- -- ---xx bunny1986-07-12d1t06.flac
6:48.72 72140588 --- -- ---xx bunny1986-07-12d1t07.flac
3:44.32 39588908 --- -- ---xx bunny1986-07-12d1t08.flac
6:39.13 70414220 --- -- ---xx bunny1986-07-12d1t09.flac
3:31.70 37385084 --- -- ---xx bunny1986-07-12d1t10.flac
4:22.18 46259180 --- -- ---xx bunny1986-07-12d1t11.flac
4:35.20 48557084 --- -- ---xx bunny1986-07-12d1t12.flac
5:49.15 61598924 --- -- ---xx bunny1986-07-12d1t13.flac
5:28.37 57946268 --- -- ---xx bunny1986-07-12d1t14.flac
3:33.62 37719068 --- -- ---xx bunny1986-07-12d1t15.flac
2:44.41 29026076 --- -- ---xx bunny1986-07-12d1t16.flac
0:32.23 5698940 --- -- ---xx bunny1986-07-12d2t01.flac
5:54.55 62575004 --- -- ---xx bunny1986-07-12d2t02.flac
0:36.27 6413948 --- -- ---xx bunny1986-07-12d2t03.flac
4:12.02 44457548 --- -- ---xx bunny1986-07-12d2t04.flac
0:28.51 5059196 --- -- ---xx bunny1986-07-12d2t05.flac
4:06.09 43415612 --- -- ---xx bunny1986-07-12d2t06.flac
0:43.42 7684028 --- -- ---xx bunny1986-07-12d2t07.flac
5:58.27 63214748 --- -- ---xx bunny1986-07-12d2t08.flac
1:04.52 11411948 --- -- ---xx bunny1986-07-12d2t09.flac
5:23.25 57036044 --- -- ---xx bunny1986-07-12d2t10.flac
2:31.45 26742284 --- -- ---xx bunny1986-07-12d2t11.flac
5:01.19 53141132 --- -- ---xx bunny1986-07-12d2t12.flac
0:43.26 7646396 --- -- ---xx bunny1986-07-12d3t01.flac
6:38.31 70280156 --- -- ---xx bunny1986-07-12d3t02.flac
0:48.50 8584844 --- -- ---xx bunny1986-07-12d3t03.flac
5:02.47 53383388 --- -- ---xx bunny1986-07-12d3t04.flac
6:28.38 68532620 --- -- ---xx bunny1986-07-12d3t05.flac
4:37.03 48869900 --- -- ---xx bunny1986-07-12d3t06.flac
3:51.31 40821356 --- -- ---xx bunny1986-07-12d3t07.flac
3:13.25 34104044 --- -- ---xx bunny1986-07-12d3t08.flac
3:23.21 35858636 --- -- ---xx bunny1986-07-12d3t09.flac
4:08.41 43843676 --- -- ---xx bunny1986-07-12d3t10.flac
4:03.17 42905228 --- -- ---xx bunny1986-07-12d3t11.flac
0:48.43 8568380 --- -- ---xx bunny1986-07-12d3t12.flac
3:31.19 37265132 --- -- ---xx bunny1986-07-12d3t13.flac
162:00.00 1714609804 B There were no sector boundary errors.
(totals for 41 files, 0.4886 overall compression ratio)

FLAC Fingerprints:

bunny1986-07-12d1t01.flac:210dafa6f3042ca8b330e09305246085
bunny1986-07-12d1t02.flac:2fb67f3eedf2b774b929f362b818bafa
bunny1986-07-12d1t03.flac:4b395dac342bf897c96d71c3816661ba
bunny1986-07-12d1t04.flac:0ba4cc2a2cd3f0e8d7359c18ea4bcb8f
bunny1986-07-12d1t05.flac:c931ac368dcced54eeb46be1da1ef65e
bunny1986-07-12d1t06.flac:bbaf6150df0fd8e59b563e340b76b69f
bunny1986-07-12d1t07.flac:bef5e178f5d02292b4292cc1fdcde896
bunny1986-07-12d1t08.flac:2468ee91bec1a39bf2ccfd261f012761
bunny1986-07-12d1t09.flac:8ae587e9f63d00474308f184689d5bbe
bunny1986-07-12d1t10.flac:520a6249b4c17a7be30f2d8b1c67b517
bunny1986-07-12d1t11.flac:de16ff3fec6ddd4395de67eae8254478
bunny1986-07-12d1t12.flac:d25a71d45f7e6d17f8d71cb88dbb3c47
bunny1986-07-12d1t13.flac:ad515faecd79985be26c71eaab05235d
bunny1986-07-12d1t14.flac:ec84447bdc3f02dda3d51bab192f676c
bunny1986-07-12d1t15.flac:79aafec1379098c50139ed28cb51f000
bunny1986-07-12d1t16.flac:140ccf7dd8a9d8dd0787f659011a59e9
bunny1986-07-12d2t01.flac:26e647a8b7f5adff3d760069af1de0af
bunny1986-07-12d2t02.flac:eaddc8a28db0ab77b3dcb2a90d75a52b
bunny1986-07-12d2t03.flac:630d0738e068eedd4701f6ad8bf4ef50
bunny1986-07-12d2t04.flac:56bea7366e67c3f2dac4ec182e1cb795
bunny1986-07-12d2t05.flac:eaa7e8854badd2be813b3e0a51c196df
bunny1986-07-12d2t06.flac:140636f961dbc6d6af321758be8d2453
bunny1986-07-12d2t07.flac:a77dfd2be03a3aa5eb8eb7c44fd4b1e6
bunny1986-07-12d2t08.flac:aa8795d1758152c4e7d89b3d934cfdf9
bunny1986-07-12d2t09.flac:851446da7124ee3174c14ee1ea196402
bunny1986-07-12d2t10.flac:abbaca745cbf103cad0378c8f5eb77a0
bunny1986-07-12d2t11.flac:c559585feb9486325388ecb8a6636bdd
bunny1986-07-12d2t12.flac:674402c4ca65ad1bb931b3aa80091095
bunny1986-07-12d3t01.flac:93e84b4b7bc83a28f8dfd894a8193935
bunny1986-07-12d3t02.flac:65ea14739a68c29069b068bbf3696c1e
bunny1986-07-12d3t03.flac:63fa955d2d9811a7338d28ca8e8aa89c
bunny1986-07-12d3t04.flac:8d36f54f852fcbf1d0c2b870c3cfc730
bunny1986-07-12d3t05.flac:5415171eff2441e2e4e1cceb66c802dc
bunny1986-07-12d3t06.flac:3e771c9cb35f64d40fdb037d392f1cbc
bunny1986-07-12d3t07.flac:56498f0d507e6158d9f5401155369dea
bunny1986-07-12d3t08.flac:18fd88f0b7bcc72fedc20aaf39a739c5
bunny1986-07-12d3t09.flac:875269bae3d6f998836b31e4c357383a
bunny1986-07-12d3t10.flac:5862ddf9dc6ecc1e3890ec02999061c7
bunny1986-07-12d3t11.flac:21f0051e5e5d2768009f7f1046ff196b
bunny1986-07-12d3t12.flac:2ac4aacce95409605b4dba17d43b0300
bunny1986-07-12d3t13.flac:e31eab386c55aa48694eefb86c036fec
Related entries:
Total comments: 1
0
1 kindmeow   [Entry]
biggrin right on, thanks for the kind reggae

Only registered users can add comments.
[ Registration | Login ]